<?xml version="1.0" standalone="no"?>
<!DOCTYPE svg PUBLIC "-//W3C//DTD SVG 1.1//EN" "http://www.w3.org/Graphics/SVG/1.1/DTD/svg11.dtd">
<svg xmlns="http://www.w3.org/2000/svg">
<metadata>Copyright (C) 2022 by original authors @ fontello.com</metadata>
<defs>
<font id="fontello" horiz-adv-x="1000" >
<font-face font-family="fontello" font-weight="400" font-stretch="normal" units-per-em="1000" ascent="850" descent="-150" />
<missing-glyph horiz-adv-x="1000" />
<glyph glyph-name="number" unicode="&#xe900;" d="M500 756c-224 0-406-182-406-406s182-406 406-406 406 182 406 406-182 406-406 406z m0-750c-190 0-344 154-344 344s154 344 344 344 344-154 344-344-154-344-344-344z m-37 447c-18-14-35-24-51-29v-55c30 10 56 25 78 46v-222h64v312h-53c-7-19-19-38-38-52z" horiz-adv-x="1000" />

<glyph glyph-name="number2" unicode="&#xe901;" d="M500 756c-224 0-406-182-406-406s182-406 406-406 406 182 406 406-182 406-406 406z m0-750c-190 0-344 154-344 344s154 344 344 344 344-154 344-344-154-344-344-344z m49 289c19 17 32 30 39 39 11 14 19 28 24 41 5 12 8 26 8 40 0 25-9 45-27 62s-42 25-72 25c-29 0-52-7-71-22s-30-38-33-71l59-6c1 18 6 30 13 38 8 7 18 11 30 11 13 0 23-3 30-11 7-7 11-17 11-30 0-13-5-25-13-37-6-9-22-26-50-51-33-32-56-57-67-76-11-18-18-38-21-59h211v55h-119c3 6 7 11 12 17 5 6 17 17 36 35z" horiz-adv-x="1000" />

<glyph glyph-name="number3" unicode="&#xe902;" d="M500 756c-224 0-406-182-406-406s182-406 406-406 406 182 406 406-182 406-406 406z m0-750c-190 0-344 154-344 344s154 344 344 344 344-154 344-344-154-344-344-344z m39 368c30 17 45 39 45 66 0 20-7 37-22 53-18 18-41 28-71 28-17 0-33-4-47-10s-25-15-32-27c-8-11-14-26-18-45l56-10c1 14 6 25 13 32 7 7 16 10 26 10 11 0 19-3 25-9 7-6 10-15 10-25 0-13-4-23-13-30-9-8-21-11-37-11l-7-49c11 3 20 5 28 5 11 0 21-5 29-13s13-21 13-36c0-16-5-29-13-38-9-10-19-14-31-14-12 0-22 4-30 11-8 8-13 20-15 34l-58-7c3-26 14-47 32-64s43-24 71-24c30 0 55 10 75 29 20 19 30 43 30 70 0 19-5 35-16 49-11 13-25 22-43 25z" horiz-adv-x="1000" />

<glyph glyph-name="number4" unicode="&#xe903;" d="M500 756c-224 0-406-182-406-406s182-406 406-406 406 182 406 406-182 406-406 406z m0-750c-190 0-344 154-344 344s154 344 344 344 344-154 344-344-154-344-344-344z m68 490h-50l-136-199v-53h128v-63h58v63h39v53h-39v199z m-58-199h-72l72 107v-107z" horiz-adv-x="1000" />

<glyph glyph-name="number5" unicode="&#xe904;" d="M500 756c-224 0-406-182-406-406s182-406 406-406 406 182 406 406-182 406-406 406z m0-750c-190 0-344 154-344 344s154 344 344 344 344-154 344-344-154-344-344-344z m8 410c-14 0-28-3-41-10l10 53h113v56h-159l-31-163 49-7c14 16 29 23 46 23 14 0 25-5 34-14s13-24 13-44c0-20-4-35-13-46-9-10-19-15-32-15-11 0-21 4-29 12-8 8-13 18-15 32l-60-6c4-26 14-47 33-63 18-15 42-23 70-23 37 0 65 14 85 41 15 21 23 44 23 69 0 31-10 57-28 76-19 19-41 29-68 29z" horiz-adv-x="1000" />

<glyph glyph-name="number6" unicode="&#xe905;" d="M500 756c-224 0-406-182-406-406s182-406 406-406 406 182 406 406-182 406-406 406z m0-750c-190 0-344 154-344 344s154 344 344 344 344-154 344-344-154-344-344-344z m16 385c-22 0-40-9-55-26 2 36 7 59 16 71s20 17 32 17c10 0 17-3 23-9s10-14 12-26l58 6c-5 25-15 45-30 58-16 13-35 20-59 20-34 0-62-13-83-38-21-25-32-67-32-124 0-56 10-96 31-121 20-25 46-37 78-37 29 0 53 10 72 29 19 20 28 45 28 77 0 31-8 55-26 74-18 20-40 29-65 29z m22-146c-8-9-17-13-28-13-12 0-22 5-31 16s-13 26-13 45c0 18 4 31 12 40s17 14 29 14c12 0 22-5 30-14s12-25 12-45c0-20-4-34-11-43z" horiz-adv-x="1000" />

<glyph glyph-name="number7" unicode="&#xe906;" d="M500 756c-224 0-406-182-406-406s182-406 406-406 406 182 406 406-182 406-406 406z m0-750c-190 0-344 154-344 344s154 344 344 344 344-154 344-344-154-344-344-344z m-102 429h137c-28-36-51-76-68-121-17-45-25-89-26-133h57c0 28 5 59 14 94 9 36 23 69 40 100 17 31 35 55 52 72v43h-206v-55z" horiz-adv-x="1000" />

<glyph glyph-name="number8" unicode="&#xe907;" d="M500 756c-224 0-406-182-406-406s182-406 406-406 406 182 406 406-182 406-406 406z m0-750c-190 0-344 154-344 344s154 344 344 344 344-154 344-344-154-344-344-344z m38 363c13 6 24 15 32 26s11 24 11 39c0 23-8 42-25 58-16 15-39 23-69 23-30 0-53-8-70-23-16-16-24-35-24-58 0-14 3-26 10-38 8-11 19-20 34-27-18-8-31-19-39-33-9-14-13-30-13-47 0-30 11-55 34-72 18-15 42-23 71-23 30 0 55 9 73 27 19 18 28 42 28 71 0 18-5 33-14 46s-22 24-39 31z m-78 88c7 6 16 10 28 10 11 0 20-3 26-10 7-7 10-16 10-27 0-12-3-22-10-28-7-7-16-11-27-11-11 0-20 4-27 10-7 7-10 17-10 28 0 12 3 21 10 28z m59-201c-8-9-18-13-30-13-13 0-24 4-32 13-9 10-13 23-13 39 0 12 4 23 11 33 7 10 18 15 33 15 12 0 23-4 31-13 8-9 13-21 13-35 0-17-5-30-13-39z" horiz-adv-x="1000" />

<glyph glyph-name="number9" unicode="&#xe908;" d="M500 756c-224 0-406-182-406-406s182-406 406-406 406 182 406 406-182 406-406 406z m0-750c-190 0-344 154-344 344s154 344 344 344 344-154 344-344-154-344-344-344z m-12 490c-29 0-53-10-72-29-19-20-29-45-29-77 0-31 9-55 27-74 18-19 39-29 64-29 23 0 41 9 57 26-3-36-8-59-17-71-9-11-19-17-32-17-9 0-17 3-23 9s-10 14-11 26l-58-6c4-26 13-46 29-59 15-13 34-20 59-20 34 0 62 13 83 39 21 25 32 66 32 124 0 56-11 96-31 121-20 24-46 37-78 37z m29-151c-7-9-17-14-29-14-12 0-22 5-30 14s-12 25-12 45c0 20 4 34 11 43 8 9 17 13 28 13 12 0 22-5 31-16 9-11 13-26 13-45 0-18-4-31-12-40z" horiz-adv-x="1000" />

<glyph glyph-name="number10" unicode="&#xe909;" d="M500 756c-224 0-406-182-406-406s182-406 406-406 406 182 406 406-182 406-406 406z m0-750c-190 0-344 154-344 344s154 344 344 344 344-154 344-344-154-344-344-344z m0 509c-31 0-54-11-71-33-21-25-31-68-31-127 0-60 9-102 28-125s43-35 74-35c30 0 54 10 71 32 20 26 31 68 31 127 0 60-11 102-31 128-17 22-41 33-71 33z m33-239c-3-12-8-20-14-25-5-4-12-7-19-7-7 0-14 3-20 7s-10 14-14 28-5 39-5 75 2 63 6 79c3 12 8 20 13 25 6 4 13 7 20 7 7 0 14-3 19-7 6-5 11-14 14-28s6-39 6-76-2-62-6-78z" horiz-adv-x="1000" />

<glyph glyph-name="number11" unicode="&#xe90a;" d="M500 756c-224 0-406-182-406-406s182-406 406-406 406 182 406 406-182 406-406 406z m55-610h-77v291c-28-27-62-46-100-59v70c20 7 42 19 66 38 23 18 40 40 48 64h63v-404z" horiz-adv-x="1000" />

<glyph glyph-name="number12" unicode="&#xe90b;" d="M500 756c-224 0-406-182-406-406s182-406 406-406 406 182 406 406-182 406-406 406z m136-544v-72h-271c3 27 12 53 27 77 14 24 43 56 86 97 35 32 56 54 64 65 11 16 16 32 16 48 0 17-4 30-14 39s-22 14-38 14c-16 0-29-5-38-14s-15-26-16-49l-77 8c4 42 18 73 43 92 24 18 54 27 90 27 40 0 71-10 94-32 22-21 34-48 34-80 0-18-4-35-10-52s-17-33-31-51c-9-12-26-29-51-51-24-23-39-37-46-45-6-7-12-14-16-21h154z" horiz-adv-x="1000" />

<glyph glyph-name="number13" unicode="&#xe90c;" d="M500 756c-224 0-406-182-406-406s182-406 406-406 406 182 406 406-182 406-406 406z m94-573c-26-25-58-38-97-38-36 0-66 11-90 32-24 21-38 48-42 82l75 9c2-19 8-34 19-44 10-10 23-15 38-15 16 0 29 6 40 18 11 13 16 29 16 49 0 20-5 35-15 47-11 11-24 17-39 17-10 0-21-2-35-6l8 62c21 0 37 4 48 14s17 22 17 38c0 14-4 24-12 32-8 8-19 13-32 13-14 0-25-5-34-14-9-9-15-23-17-40l-71 12c5 24 12 44 22 58s24 27 42 35 38 12 60 12c38 0 68-12 91-36 19-20 28-42 28-67 0-35-19-63-58-84 23-5 42-17 56-34 13-17 20-38 20-62 0-35-13-65-38-90z" horiz-adv-x="1000" />

<glyph glyph-name="number14" unicode="&#xe90d;" d="M511 301v137l-93-137h93z m-11 455c-224 0-406-182-406-406s182-406 406-406 406 182 406 406-182 406-406 406z m136-523h-50v-81h-75v81h-165v67l175 256h65v-255h50v-68z" horiz-adv-x="1000" />

<glyph glyph-name="number15" unicode="&#xe90e;" d="M500 756c-224 0-406-182-406-406s182-406 406-406 406 182 406 406-182 406-406 406z m111-552c-26-36-63-53-109-53-37 0-68 9-91 29-24 21-38 47-42 81l77 8c2-17 9-31 19-41 11-10 24-15 38-15 16 0 29 6 40 19 12 13 17 33 17 59 0 25-5 44-17 56-11 12-25 18-43 18-22 0-42-9-60-29l-62 9 40 210h204v-72h-146l-12-69c17 9 35 13 53 13 34 0 63-13 87-37 24-25 36-58 36-97 0-34-10-63-29-89z" horiz-adv-x="1000" />

<glyph glyph-name="number16" unicode="&#xe90f;" d="M502 349c-15 0-27-6-38-18-10-11-15-28-15-51 0-25 6-44 17-58 12-14 25-21 40-21 14 0 26 6 36 17s14 30 14 55c0 26-5 45-15 58s-24 18-39 18z m-2 407c-224 0-406-182-406-406s182-406 406-406 406 182 406 406-182 406-406 406z m95-581c-24-25-55-37-93-37-41 0-74 15-100 47-26 31-39 83-39 155 0 74 13 127 41 160 27 32 62 49 106 49 30 0 56-9 76-26 20-17 33-42 38-75l-74-8c-2 15-7 26-15 34-7 7-17 11-30 11-16 0-30-8-41-22-12-15-19-45-22-91 20 22 44 34 72 34 32 0 60-13 83-37s35-56 35-95c0-41-13-74-37-99z" horiz-adv-x="1000" />

<glyph glyph-name="number17" unicode="&#xe910;" d="M500 756c-224 0-406-182-406-406s182-406 406-406 406 182 406 406-182 406-406 406z m137-276c-22-21-44-52-66-92s-40-83-52-128c-12-45-17-85-17-121h-74c1 56 12 113 34 170 22 58 51 110 87 156h-176v72h264v-57z" horiz-adv-x="1000" />

<glyph glyph-name="number18" unicode="&#xe911;" d="M507 329c-19 0-33-6-42-19-10-13-14-28-14-43 0-21 5-38 16-50s25-18 41-18c16 0 29 6 39 17s16 28 16 50c0 19-5 35-16 46-11 12-24 17-40 17z m-1 61c14 0 26 5 35 13 8 9 13 21 13 37 0 14-5 26-13 34s-20 14-35 14c-14 0-26-5-35-14-9-8-13-20-13-35 0-15 4-27 13-36 9-8 20-13 35-13z m-6 366c-224 0-406-182-406-406s182-406 406-406 406 182 406 406-182 406-406 406z m104-584c-24-23-56-35-95-35-37 0-67 10-91 29-29 23-43 54-43 94 0 21 5 41 16 60 11 18 28 32 51 42-20 8-35 20-44 35-9 14-13 30-13 48 0 30 10 55 31 74 21 20 51 30 90 30 38 0 68-10 89-30 21-19 32-44 32-74 0-19-5-35-15-50-10-14-23-25-41-33 22-9 39-22 51-39s17-38 17-60c0-37-12-68-35-91z" horiz-adv-x="1000" />

<glyph glyph-name="number19" unicode="&#xe912;" d="M498 492c-14 0-26-5-36-16-9-12-14-30-14-56 0-26 5-45 15-57 11-12 24-18 39-18 15 0 27 6 38 18s15 28 15 51c0 25-6 44-17 58s-25 20-40 20z m2 264c-224 0-406-182-406-406s182-406 406-406 406 182 406 406-182 406-406 406z m100-562c-27-33-62-49-106-49-31 0-57 8-76 25-19 17-32 42-37 75l74 9c2-16 7-27 15-34 7-8 17-11 30-11 16 0 29 7 40 22 12 15 19 45 22 91-20-22-44-34-73-34-32 0-59 13-82 37-23 24-35 56-35 95 0 41 13 74 37 99 24 25 55 37 93 37 40 0 74-15 100-47 26-32 39-84 39-156 0-74-13-127-41-159z" horiz-adv-x="1000" />

<glyph glyph-name="number20" unicode="&#xe913;" d="M523 491c-7 6-16 9-25 9s-18-3-25-9c-7-6-13-16-17-32-6-20-8-53-8-100s2-80 7-98 11-29 18-35c7-6 16-9 25-9s18 3 25 9 13 17 17 32c6 20 8 53 8 101s-2 79-7 97c-5 18-11 29-18 35z m-23 265c-224 0-406-182-406-406s182-406 406-406 406 182 406 406-182 406-406 406z m89-562c-21-27-52-41-91-41-39 0-71 15-95 45s-36 84-36 161c0 76 13 131 40 164 22 28 52 41 91 41s70-14 92-42c26-32 39-87 39-163 0-77-13-131-40-165z" horiz-adv-x="1000" />
</font>
</defs>
</svg>
